It is the band’s first album of the 1970s and its first release on the band’s newly formed label, Rolling Stones Records, after having been contracted since 1963 with Decca Records in the U. The original vinyl sleeve,. The album will be released in multiple formats in May. Offered in Catawiki's The Rolling Stones Auction: Rolling Stones ~ Sticky Fingers ~ Deluxe 3CD/DVD + 7" Vinyl Vinyl Box Set Mint/Sealed. Sticky Fingers was the ninth British and 11th American studio album by The Rolling Stones. Audio CD £176. The ninth British and eleventh American studio release of the group finds them in even more harder-rocking territory, as the inclusion of axeman Mick Taylor helped them compete effortlessly in. The Rolling Stones - Sticky Fingers collectible vinyl lp record album for sale. Released 30 October 2013 on Universal (catalog no. 3 out of 5 stars 7. Rolling Stones Records COC 59100 made in UK with zipper. 99 In Stock Sticky Fingers Original LP Vinyl Vinyl LP US $24. Sticky Fingers le tracce musicali dell'album di The Rolling Stones, naviga il sito per la discografia completa di The Rolling Stones e le sue novità musicali. Vinyl Rolling Stones - From the Vault: Sticky Fingers- Live At The Fonda Theater 2015 (Vinyl). It is the band's first album of the 1970s and the first release on their newly formed label, Rolling Stones Records, after having been contracted since 1963 with Decca Records in the UK and London Records in the US. 99 In Stock The Rolling Stones Sticky Fingers (Super Deluxe) (3CD + DVD) CD with DVD CDN $201. Shop 292 records for sale for album Sticky fingers by The Rolling Stones on CDandLP in Vinyl and CD format. Ranked #63 on Rolling Stone's 500 Greatest Albums of All Time List: 1971's Sticky Fingers Includes "Wild Horses," "Brown Sugar," "Can't You Hear Me Knockin'," "Dead Flowers," and "Bitch". It was the band's first release on their newly formed label, Rolling Stones Records, after having been contracted since 1963 with Decca Records in the United Kingdom and London Records in the United States. May 11, 2018- "Please allow me to introduce myself,I'm a man of wealth & taste,I've been around for many a long year,stole many a man's soul&faith,I was around when Jesus Christ had his moment of doubt&pain,made damn sure Pilot washed his hands&sealed his fate,pleased to meet you, hope you guessed my name. Remastered album on black heavyweight vinyl plus 12x12 insert. in Gilbert. The 2015 remaster of the original Sticky Fingers album is simply the best sounding Rolling Stones CD I have ever heard. Tickets on sale now for No Filter US Tour 2019. Rolling Stones Records COC 59100 made in UK with zipper. What happened to this remastered "Sticky Fingers" is beyond me. Review This 1971 tour de force is one of the very best records of the '70s. The Rolling Stones Sticky Fingers Original CD Remastered album with 12 page booklet. Every note sounds crystal clear with no noise or tape hiss anywhere. Sticky Fingers was the 9th British and 11th American studio album by The Rolling Stones, released in April 1971. Søgeresultater i vinyl for rolling stones. We use a combination of the industry standard Goldmine Grading Scale as well as a 1-10 scale to ensure a clear and accurate account of each album's condition. Rolling Stones, The - Sticky Fingers - Vinyl LP - 1971 - DE - Original günstig online kaufen bei HHV - Versandkostenfrei bestellen ab 80€!. They were at the top of their game. Shop 278 records for sale for album Sticky fingers by The Rolling Stones on CDandLP in Vinyl and CD format. The pressing that gets played is the German first press with the UK metalwork - A3/B3 sides. Buy 2 get 1 free on select movies, music, books & games. It was an Andy Warhol photograph of a man from the waist down in tight jeans featuring a functioning zipper. Buy Sticky Fingers [Limited Edition] (CD) by The Rolling Stones (CD). DVDs Blu-ray VHS. Köp online THE ROLLING STONES - STICK. The classic album features timeless songs such as 'Brown Sugar,' 'Wild Horses,' 'Bitch,' 'Sister Morphine' and 'Dead Flowers' and showcases the inventive song writing of Mick Jagger and Keith Richards and formidable guitar licks from Mick Taylor. The show is the last UK show before the Stones went into self-exile to France to get away from the oppressive British tax laws. 8 out of 5 stars with 27 reviews. 50 In Stock The Rolling Stones Sticky Fingers Deluxe Edition Boxset 2CD + DVD. Sticky Fingers became a Number One seller, reaching triple-platinum status, and achieved several critical accolades. The Rolling Stones will release the rare Spanish edition of the Sticky Fingers album worldwide, 44 years after the original release of the album. The Rolling Stones Sticky Fingers on 180g Vinyl LP. "Sticky Fingers" was an album of firsts for the Stones. This is the issue that was sent to me when I redeemed the code for a free vinyl copy included with the Target exclusive edition of the deluxe CD, The Rolling Stones - Sticky Fingers. The Rolling Stones - Sticky Fingers - Rolling Stones Records COC 58100 - 1971 - Original Release - Richmond Pressing. They were at the top of their game. A previously unreleased live track from the band's No Filter tour, "She's A Rainbow" recorded at Paris' U Arena on October 23, 2017 comes to record stores on colored 10" vinyl for Record Store Day. Sticky Fingers is considered one of the Rolling Stones' best albums. First album to have been released on the band's custom label, back in 1971, and one of their most important during their long-running and much celebrated career, "Sticky fingers" sees the Rolling Stones in their creative prime, presenting them at their most low-key and introspective. REVIEW: Rolling Stones Reissue ‘Sticky Fingers’ Yet Again Posted on June 9, 2015 August 20, 2015 / Joe Froemming / Arts & Entertainment / It seems like every five-to-10 years or so, the Rolling Stones remaster and reissue parts of their catalog, often with barely any difference in sound quality from the previous editions. Remastered Album On Vinyl! 'Sticky Fingers,' one of the most revered albums in the storied catalogue of the legendary Rolling Stones, is set to enthral a new generation of admirers. Find many great new & used options and get the best deals for Rolling Stones Sticky Fingers Lp *canadian Pressing* at the best online prices at eBay! Free shipping for many products!. Like Brand New!! - letgo. It contains most of the group's British and American albums from the 1960s in monaural (mono) format, on 15 CDs or on 16 LPs. The Stones’ debut album on their own label didn’t just become their first to top both the British and American charts. 3 out of 5 stars 7. The 2015 remaster of the original Sticky Fingers album is simply the best sounding Rolling Stones CD I have ever heard. Rolling Stones-klassikeren, "Sticky Fingers" udgives nu i remastered udgave fra originale master tapes. Leeds is the site of one of the Rolling Stones' classic '70s bootlegs -- later officially released as part of a Super Deluxe reissue of Sticky Fingers -- and if From the Vault: Live in Leeds 1982 isn't as epochal. “The Rolling Stones: Studio Albums Vinyl Collection 1971-2016” is a comprehensive collection of all Stones vinyl albums released since 1971. The Rolling Stones " Sticky Fingers " 71 , Holland. con un abbondante selezione di materiale inedito. The Rolling Stones are giving Sticky Fingers a deluxe reissue treatment. Page 3 in result lists. The album features an image of a woman’s hand emerging. It is the band's first album of the decade and the first release on the band's new label Rolling Stones Records, after having been contracted since 1963 with Decca Records in the UK and London Records in the US. The Rolling Stones - Sticky Fingers (CD) $10. Description. In May 2015 at the intimate Fonda Theatre in Hollywood, California, the Stones performed the entire Sticky Fingers album live in concert for the first and so far only time in their career. Sticky Fingers: 12" Vinyl: 10: 1971-04-30; US; Rolling Stones Records: COC 59100 [none] Sticky Fingers (speciality pressing with zipper cover) 12" Vinyl: 10: 1977; US; Rolling Stones Records: COC 39105 [none] Sticky Fingers: 12" Vinyl: 10: 1980; ES; Rolling Stones Records: 10C 068-063616 [none] Sticky Fingers: 12" Vinyl: 10: 1981; US; Mobile. The Rolling Stones: Sticky Fingers. 99,Pre-owned:9. Browse our daily deals for even more savings! Free shipping on many items!. It is the band's first album of the 1970s and its first release on the band's newly formed label, Rolling Stones Records, after having been contracted since 1963 with Decca Records in the UK and London Records in the US. Explore Kris Olin's photos on Flickr. Sticky Fingers was the ninth British and 11th American studio album by The Rolling Stones. The Rolling Stones Big Hits (High Tide and Green Grass) Vinyl LP US $20. With its offhand mixture of decadence, roots music, and outright malevolence, Sticky Fingers set the tone for the rest of the decade for the Stones. Take a look below for 21 more interesting and fun facts about The Rolling Stones' Sticky Fingers album. Free UK Delivery by Amazon. The Rolling Stones: From The Vault series has just released the Marquee Club 1971 show in its entirety and is a beaut. 8 % Extraction speed 7. View credits, reviews, tracks and shop for the 1973 Zipper cover Vinyl release of Sticky Fingers on Discogs. Find many great new & used options and get the best deals for Sticky Fingers by The Rolling Stones (Vinyl, Jun-2015, Universal) at the best online prices at eBay!. Page 3 in result lists. Serious collector condition copy of this classic. Sticky Fingers is possibly the best Rolling Stones album of the 1970s, although it does have competition from the same band. all items this time will be dispatched after 10 working days, weekends are not working days. Shop exclusive music and merch from the The Rolling Stones Official Online Store. The Rolling Stones / Sticky Fingers / CD Remastered, Reissue / Rock / 602527015620 LP Vinyl; 12 Inch Single or at least more wary than most Stones albums. Honk Sticky Fingers Live At The Fonda Theatre (2017) Rolling Stones. Sticky Fingers is the ninth British and eleventh American studio album by the English rock band The Rolling Stones, released in April 1971. Sticky Fingers is loaded with 'em. Produziert wurde es von Jimmy Miller, der von 1968 bis 1973 Produzent der Band war. Sticky Fingers von The Rolling Stones (1971) (CD, LP, Double LP) und weitere The Rolling Stones Alben jetzt bequem und günstig bestellen bei recordsale. The Rolling Stones: Sticky Fingers (Shm SACD) Sold for 46. It is the band's first album of the 1970s and the first release on their newly formed label, Rolling Stones Records, after having been contracted since 1963 with Decca Records in the UK and London Records in the US. wav Peak level 99. Article properties: The Rolling Stones: Sticky Fingers (LP, 180g Vinyl) Interpret: The Rolling Stones Album titlle: Sticky Fingers (LP, 180g Vinyl) Genre Rock Year of publication 2015 Geschwindigkeit 33 U/min Vinyl Size LP (12 Inch) Record Grading Mint (M) Sleeve Grading Mint (M) Vinyl weight 180g Vinyl Label Rolling Stones Records Artikelart LP. Pieced together from outtakes and much-labored-over songs, Sticky Fingers manages to have a loose, ramshackle ambience that belies both its origins and the dark undercurrents of the songs. Rolling Stones Винил vinyl LP Vinyl грампластинка LP виниловые пластинки ROLLING STONES LP record sticky fingers Classic Rock Vinyl Blues Rock Виниловые пластинки винил грампластинки Record lp виниловая пластинка rolling stones диски Lp vinyl records. For the limited vinyl box edition, all 15 albums (on 20 LPs) were remastered from the original bands. It is the band's first album of the decade and the first release on the band's new label Rolling Stones Records, after having been contracted since 1963 with Decca Records in the UK and London Records in the US. The Rolling Stones. A recording of "Let It Rock" from the Leeds concert. 0 % Test CRC 5B498123 Copy CRC 5B498123 Copy OK No errors occurred AccurateRip summary. Original Sticky Fingers vinyl with zipper. 2015 EU reissue pressed on 180g Vinyl LP-The 1971 classic album captured The Rolling Stones at the peak of their powers and features timeless tracks. It is the opening track and lead single from their album Sticky Fingers (1971). 99 (21 used offers). Pressings of Sticky Fingers seem to be wildly variable, some sound great, some seem to sound like the sound is under a blanket. The set will be released across multiple formats on May 25, 2015 by Universal. Shop 278 records for sale for album Sticky fingers by The Rolling Stones on CDandLP in Vinyl and CD format. The Rolling Stones were clearly worried about pacing. Burrito Deluxe, was released in April 1970. Buy Sticky Fingers (CD) by The Rolling Stones (CD $14. Sticky Fingers (Remastered) The Rolling Stones; Beggars Banquet (Vinyl) The Rolling Stones; Get Yer Ya Ya's Out! The Rolling Stones In Concert (40Th Anniversary Deluxe Box Set) CD1 The Rolling Stones; GRRR! (Deluxe Version) CD3 The Rolling Stones; Let It Bleed (Remastered 1986) The Rolling Stones; The Complete Singles 1971-2006 CD45 The Rolling. 99 In Stock The Rolling Stones Sticky Fingers Original LP Vinyl LP US $24. It’s always been a sweet item, but there has also always been a lot of them out there. Vind fantastische aanbiedingen voor lp rolling stones sticky fingers. 2, LP: The Rolling Stones, Sticky Fingers: REAL METAL ZIPPER. Find low everyday prices and buy online for delivery or in-store pick-up. With its offhand mixture of decadence, roots music, and outright malevolence, Sticky Fingers set the tone for the rest of the decade for the Stones. The Rolling Stones - Sticky Fingers - Vinyl LP 33T - 1971 Rolling Stones Record Dec 14, 2018. Rolling Stones, The - Sticky Fingers - Vinyl LP - 1971 - UK - Original günstig online kaufen bei HHV - Versandkostenfrei bestellen ab 80€!. is the brand-new Best Of compilation album from the Rolling Stones — featuring the biggest hits and classic cuts from every Rolling Stones studio album from 1971 to 2016's Blue & Lonesome. Released 30 October 2013 on Universal (catalog no. The album is in surprisingly good condition for being old, especially the front of the jeans with the zipper. Buy Sticky Fingers from our CD range - FREE UK delivery on orders over £10 Vinyl Pre-Orders; Sticky Fingers The Rolling Stones. Both encase their respective band's best album. The Rolling Stones have announced the release of a new and limited-edition 15-album vinyl box set collection. 95 on SALE. Keith Richards, Mick Jagger and the Rolling Stones present original, authentic shirts, gear and more from their official store on Merchbar. The Stones’ debut album on their own label didn’t just become their first to top both the British and American charts. Software Format: CD. View credits, reviews, tracks and shop for the 1971 RI - Philips Pressing, Zipper Cover Vinyl release of Sticky Fingers on Discogs. Shop Exclusive Vinyl Movies & TV Steelbooks Disney Movies TV Featured Rolling Stones - Sticky Fingers. Any Rolling Stones fans out there who can tell me about this album?. Find many great new & used options and get the best deals for The Rolling Stones Sticky Fingers 180g LP Vinyl Record at the best online prices at eBay! Free shipping for many products!. The Rolling Stones Sticky Fingers Vinyl LP 1974 Original w/ Zipper VG Shape. Free Shipping on Orders over $25!. These may include fit and finish flaws. Remastered Album On Vinyl! 'Sticky Fingers,' one of the most revered albums in the storied catalogue of the legendary Rolling Stones, is set to enthral a new generation of admirers. Shop 278 records for sale for album Sticky fingers by The Rolling Stones on CDandLP in Vinyl and CD format. Amid contractual disputes with Klein, they formed their own record company, Rolling Stones Records. Due to the mass production process, this item may have imperfections. I've never encountered a true 100% near mint copy of that pressing. Working from familiarly bluesy territory, the boys add country honk depression, honing the trademark combination of huckster cynicism and sonic authenticity that marks their best work. Canadian pressing on Rolling Stones Records label ‎– COC 59100. sticky fingers synonyms, sticky fingers pronunciation, sticky fingers translation, English dictionary definition of sticky fingers. Informationen zum Album Sticky Fingers von The Rolling Stones. We specialize in rare, high quality pressings. After a frenetic schedule back in 2015, Eagle Rock's Rolling Stones 'From The Vault' series has slowed down in recent years, with only one release - 2017's Sticky Fingers at Fonda Theatre - in the last two and a half years. The Rolling Stones are giving Sticky Fingers a deluxe reissue treatment. "Brown Sugar" is a song by the Rolling Stones. There’s little that can be said about Sticky Fingers that hasn’t been said a million times, but it bears repeating: It’s the most consistently great album in the Rolling Stones’ estimable catalog, making it easily one of the most solid albums ever. 00 0 bids + $10. Any Rolling Stones fans out there who can tell me about this album?. Sticky Fingers was the ninth British and 11th American studio album by The Rolling Stones. For vinyl aficionados, The Rolling Stones’ Online Shop will have an exclusive, 4-LP color vinyl edition of the collection that mirrors the track list of the deluxe CD and will be pressed on purple, red, orange, and yellow-colored 180-gram vinyl. Make offer - Rolling Stones Sticky Fingers Ltd Spanish Cover Double Heavyweight Vinyl LP New The Rolling Stones Sticky Fingers A3/B3 1st Press UK Vinyl Record COC 59100 Zip £500. 2, LP: The Rolling Stones, Sticky Fingers: REAL METAL ZIPPER. Article properties: The Rolling Stones: Sticky Fingers (LP, 180g Vinyl) Interpret: The Rolling Stones Album titlle: Sticky Fingers (LP, 180g Vinyl) Genre Rock Year of publication 2015 Geschwindigkeit 33 U/min Vinyl Size LP (12 Inch) Record Grading Mint (M) Sleeve Grading Mint (M) Vinyl weight 180g Vinyl Label Rolling Stones Records Artikelart LP. About File Formats. 0 % Test CRC 59F53DEE Copy CRC 59F53DEE Copy OK No errors occurred AccurateRip summary. 49 In Stock The Rolling Stones Some Girls: Remastered Vinyl LP US $24. 2015 EU reissue pressed on 180g Vinyl LP-The 1971 classic album captured The Rolling Stones at the peak of their powers and features timeless tracks. The third in a series of four high-water mark Rolling Stones albums delivered from 1968 through 1972, Sticky Fingers stands today as a creative peak from a band that, unbeknownst to anyone at the. For the limited vinyl box edition, all 15 albums (on 20 LPs) were remastered from the original bands. Used Rolling Stones Sticky Fingers rerelease 180G Vinyl for sale in Gilbert - Rolling Stones Sticky Fingers rerelease 180G Vinyl posted by Rob S. Like Brand New!! - letgo. Shop 278 records for sale for album Sticky fingers by The Rolling Stones on CDandLP in Vinyl and CD format. Find many great new & used options and get the best deals for Rolling Stones - Sticky Fingers(180g Deluxe Vinyl 2LP with Real Zipper) at the best online prices at eBay!. Discount: Sticky Fingers The Rolling Stones Sticky Fingers (Vinyl) The Rolling Stones. Sticky Fingers was the ninth British and 11th American studio album by The Rolling Stones. Next image. In May 2015 at the intimate Fonda Theatre in Hollywood, California, the Stones performed the entire Sticky Fingers album live in concert for the first and so far only time in their career. Jual Vinyl Piringan Hitam the Rolling Stones Sticky Fingers dengan harga Rp 749. 6 - Sticky Fingers by The Rolling Stones. Shop The Rolling Stones's Sticky fingers taiwan pressing LP for sale by laskit822 at 75. Take a look below for 21 more interesting and fun facts about The Rolling Stones' Sticky Fingers album. Filename C:\Users\Meijin\Desktop\ALLexxess\The Rolling Stones\1971 Sticky Fingers (Mini LP PT-SHM Universal Japan 2013)\The Rolling Stones - Sticky Fingers PT-SHM. Artist: The Rolling Stones Album: Sticky Fingers (1971) Track: 4 Yeah, you got satin shoes Yeah, you got plastic boots Y'all got cocaine eyes Yeah, you got speed-freak jive Can't you hear me. Related products. sticky fingers synonyms, sticky fingers pronunciation, sticky fingers translation, English dictionary definition of sticky fingers. On the 20th May 2015 at the Fonda Theatre in Hollywood, California, the band performed the entire Sticky Fingers album live in concert for the first and - so far - only time in their career. com Pop / Rock - Order by Phone 1-800-336-4627. 63 on Rolling Stone's 500 Greatest Albums of All Time. Please note that the final price doesn't mean this is the real value cause it depends on conditions too, so a MINT or SEALED item it's worth a lot more than a VG item. 99 In Stock The Rolling Stones Blue & Lonesome 12" Double Heavyweight Vinyl Double Vinyl LP US $31. Lot 134037946. Sticky Fingers was the ninth British and 11th American studio album by The Rolling Stones. Vinyl-Record. RARE/2HAND VINYL LP ON ROLLING STONES RECORDS 1971. Rolling Stones: Studio Albums Vinyl Collection Box 1971 - 2016 (19xVinyl) Rolling Stones: Sticky Fingers Live At The Fonda Theatre (3xVinyl+DVD) DKK 399,95. From the album sticky fingersenjoy:D lyrics: Childhood living is easy to do The things you wanted I bought them for you Graceless lady you know who I am You know I cant let you slide through. The Stones’ debut album on their own label didn’t just become their first to top both the British and American charts. The 2015 remaster of the original Sticky Fingers album is simply the best sounding Rolling Stones CD I have ever heard. Sticky Fingers Rolling Stones Kommentar. It is the band's first album of the 1970s and the first release on their newly formed label, Rolling Stones Records, after having been contracted since 1963 with Decca Records in the UK and London Records in the US. The Rolling Stones have announced that they’ll release a 15 album box set this summer. This one-of-a-kind issue reveals the 1971 Sticky Fingers album with unreleased takes from a time of transition for the English rock band, The Rolling Stones. The Rolling Stones are giving Sticky Fingers a deluxe reissue treatment. Acknowledged to be among the "best-of-the best" black vinyl, Mobile Fidelity Half-Speed Master Recordings went back to the original tapes and then created half-speed masters. It is the band's first album of the 1970s and the first release on their newly formed label, Rolling Stones Records, after having been contracted since 1963 with Decca Records in the UK and London Records in the US. Rolling Stones, The - Sticky Fingers - Vinyl LP - 1971 - EU - Reissue kaufen im Online Music Store von HHV - Neuheiten & Topseller auf Vinyl, CD & Tape - Versandkostenfrei bestellen ab 80€!. The Rolling Stones Big Hits (High Tide and Green Grass) Vinyl LP US $20. THE ROLLING STONES - STICKY FINGERS - ORIG VINYL LP-SKIVA 155. With the release of the Rolling Stones reissue of Sticky Fingers just a few weeks away we are going to unravel the stories behind the previously unreleased tracks included as bonus material on the. Brown Sugar Sway Wild Horses Can't You Hear Me KnockingLeggi tutto. The most common sticky fingers material is metal. The band’s normal piano player bowed out of the session because he didn’t like playing minor chords. * Items below may differ depending on the release. Landmark 1971 album remastered on 180-gram vinyl. Sticky Fingers is the third of the trilogy of Rolling Stones albums that, in our opinion, comprise the heart of the band's prime. Get the best deal for The Rolling Stones Vinyl Records from the largest online selection at eBay. This unique performance from 20 May 2015, saw the band perform the entire Sticky Fingers album live in. The tapes were sourced from their 1969 American tour, their first since 1967, and so when the LP came out in 1970, it was considered to be a pretty big deal, and an. Shop 278 records for sale for album Sticky fingers by The Rolling Stones on CDandLP in Vinyl and CD format. 00 0 bids + $10. Sticky Fingers - Wikipedia. The Rolling Stones Sticky Fingers Original LP Vinyl LP US $24. 99 Sorry Sold Out The Rolling Stones Sticky Fingers (2CD/DVD - Deluxe DVD Size Box) CD with DVD CDN $38. Sticky Fingers [Limited Edition] by The Rolling Stones - CD (2013) for $52. 00 In Stock The Rolling Stones Exile On Main Street Double Vinyl LP US $49. Sticky Fingers is the ninth British and 11th American studio album by English rock band The Rolling Stones, released in April 1971. Other Notes: 1971 US First Press. 0 X Range quality 100. Price guide for collectable Vinyl Records, CDs, Cassettes, Reel-to-reel tapes, 8. Pieced together from outtakes and much-labored-over songs, Sticky Fingers manages to have a loose, ramshackle ambience that belies both its origins and the dark undercurrents of the songs. 8 % Extraction speed 7. The Rolling Stones - Sticky Fingers (CD) $10. Ranked #63 on Rolling Stone's 500 Greatest Albums of All Time List: 1971's Sticky Fingers Includes "Wild Horses," "Brown Sugar," "Can't You Hear Me Knockin'," "Dead Flowers," and "Bitch". Sticky Fingers is possibly the best Rolling Stones album of the 1970s, although it does have competition from the same band. Rolling Stones : Sticky Fingers (LP, Vinyl record album) - Landmark work from The Rolling Stones – and a set that may well stand alongside Exile On Main -- Dusty Groove is Chicago's Online Record Store. This is the issue that was sent to me when I redeemed the code for a free vinyl copy included with the Target exclusive edition of the deluxe CD, The Rolling Stones - Sticky Fingers. Delivery. Sticky Fingers (ltd 2LP Special Edition) (CD) The Rolling Stones Rock And Roll Circus (Expanded Audio Edition). Le migliori offerte per THE ROLLING STONES sticky fingers LP EX-/EX, 450195 1, vinyl, album, with insert sono su eBay Confronta prezzi e caratteristiche di prodotti nuovi e usati Molti articoli con consegna gratis!. Buy Sticky Fingers (LP), The Rolling Stones - Sticky Fingers Vinyl LP By The Rolling Stones Format: Vinyl at Walmart. Sticky Fingers is the toughest, tightest, best Blues Rock album ever released. Produktbeschreibungen. Vinyl Records by Rolling Stones - Rolling Stones,Out Of Control,Bridges To Babylon,No Security,Singles Collection - The London Years,Voodoo Lounge,Discover Stones,Emotional Rescue,12 X 5,1965/70,A Rolling Stone Gathers No Moss,Aftermath,Aftermath,Flowers,Flowers,Get Yer Ya-Ya's Out,Goats Head Soup,Goats Head Soup,Got Live If You Want It,Got Live If You Want It,It's Only Rock 'N' Roll,It's Only. Sticky Fingers was just about as perfect as a rock album. Listen online top songs The Rolling Stones. ‘Brown Sugar’ is the opening track on the Sticky Fingers album, released in 1971. The Stones great album Sticky Fingers! Played a few times on a high end record player. Shop exclusive music and merch from the The Rolling Stones Official Online Store. Buy Sticky Fingers [Limited Edition] (CD) by The Rolling Stones (CD). This is the issue that was sent to me when I redeemed the code for a free vinyl copy included with the Target exclusive edition of the deluxe CD, The Rolling Stones - Sticky Fingers. Keith Richards, Mick Jagger and the Rolling Stones present original, authentic shirts, gear and more from their official store on Merchbar. Filename C:\Users\Meijin\Desktop\ALLexxess\The Rolling Stones\1971 Sticky Fingers (3CD + DVD + 7'' Vinyl Box Set UMe 2015)\CD1\The Rolling Stones - Sticky Fingers CD1. Find many great new & used options and get the best deals for Sticky Fingers by The Rolling Stones (Vinyl, Jun-2015, Universal) at the best online prices at eBay!. And perhaps most. The Rolling Stones - Sticky Fingers - Vinyl LP 33T - 1971 Rolling Stones Record Dec 14, 2018. There’s little that can be said about Sticky Fingers that hasn’t been said a million times, but it bears repeating: It’s the most consistently great album in the Rolling Stones’ estimable catalog, making it easily one of the most solid albums ever. A Blog About Music. Rolling Stones : Sticky Fingers (LP, Vinyl record album) - Landmark work from The Rolling Stones – and a set that may well stand alongside Exile On Main -- Dusty Groove is Chicago's Online Record Store. Tickets on sale now for No Filter US Tour 2019. Burrito Deluxe, was released in April 1970. 0 out of 5 stars 1. 'Sticky Fingers', one of the most revered albums in the storied catalogue of the legendary Rolling Stones gets reissued. wav Peak level 99. Regarded as one of The Rolling Stones’ all-time great albums, ‘Sticky Fingers’ captured the bands trademark combination of swagger and tenderness in a superb collection. andy warhol, andy warhol cover art, brown sugar, craig braun, record cover art, rolling stones, sticky fingers, the rolling stones, warhol cover art No need to say that Andy Warhol’s cover concept for the Sticky Fingers album, in which you could unzip a man’s jeans, and see his generously filled underpants underneath, was quite. They also banned the album track "Sister Morphine" on side two because of it's drug reference. Plunk the needle down on the vinyl and those first guitar chords—the opening of the Rolling Stones ' "Brown Sugar"—rang out proudly and loudly. If you have any sort of appreciation for music that delves beneath the most superficial of levels and aren't a prude, you'll be able to appreciate Sticky Fingers. With its offhand mixture of decadence, roots music, and outright malevolence, Sticky Fingers set the tone for the rest of the decade for the Stones. nl, nu op lp voor €29. There's little that can be said about Sticky Fingers that hasn't been said a million times, but it bears repeating: It's the most consistently great album in the Rolling Stones' estimable catalog, making it easily one of the most solid albums ever. Sticky Fingers Rolling Stones Kommentar. And the dark satanic desperation of that just bleeds through all over this album. Rolling Stones, The - Sticky Fingers - Vinyl LP - 1971 - DE - Original günstig online kaufen bei HHV - Versandkostenfrei bestellen ab 80€!. First album to have been released on the band's custom label, back in 1971, and one of their most important during their long-running and much celebrated career, "Sticky fingers" sees the Rolling Stones in their creative prime, presenting them at their most low-key and introspective. I must disagree. This is a brand new Japanese release (UICY-75886) of The Rolling Stones classic 1971 album Sticky Fingers. Rolling Stones Винил vinyl LP Vinyl грампластинка LP виниловые пластинки ROLLING STONES LP record sticky fingers Classic Rock Vinyl Blues Rock Виниловые пластинки винил грампластинки Record lp виниловая пластинка rolling stones диски Lp vinyl records. of every Stones studio album from 1971's Sticky Fingers through. Le migliori offerte per THE ROLLING STONES sticky fingers LP EX-/EX, 450195 1, vinyl, album, with insert sono su eBay Confronta prezzi e caratteristiche di prodotti nuovi e usati Molti articoli con consegna gratis!. STONES LP ZIP at the best online prices at eBay! Free shipping for many products!. Find more Rolling Stones - Sticky Fingers vinyl records and LPs. No matter what you're looking for or where you are in the world, our global marketplace of sellers can help you find unique and affordable options. nl, nu op lp voor €29. With the hits Brown Sugar and Wild Horses, the album is considered one of the Stones' best albums. Rolling Stones -- Sticky Fingers $80 -- Mobile Fidelity Sound Lab/Original Master Recording. CD Rolling Stones/Beggars Banquet CD Rolling Stones/Sticky Fingers CD Rolling Stones/Sticky Fingers (Deluxe) CD Rolling Stones/Very Best of 1964-1971 CD Sheeran, Ed/Divide CD Sheeran, Ed/Divide - Deluxe CD Slayer/ Undisputed Attitude CD Smiths, The/The Queen Is Dead CD Soundtrack/The Little Mermaid (Legacy Collection). * Items below may differ depending on the release. It is the band's first album of the 1970s and its first release on the band's newly formed label, Rolling Stones Records, after having been contracted since 1963 with Decca Records in the UK and London Records in the US. Rolling Stones Records Just Another Vinyl Blog. Tickets on sale now for No Filter US Tour 2019. Original Sticky Fingers vinyl with zipper. Ranked #63 on Rolling Stone's 500 Greatest Albums of All Time List: 1971's Sticky Fingers Includes "Wild Horses," "Brown Sugar," "Can't You Hear Me Knockin'," "Dead Flowers," and "Bitch". - Hamish Champ, The 100 Best-Selling Albums of the 70s, 2004. Vinyl replica. The $5 tickets for the show - which saw them playing 1971 album 'Sticky Fingers' in full - sold. The Rolling Stones "Sticky Fingers" Vinyl Record. Find many great new & used options and get the best deals for THE ROLLING STONES STICKY FINGERS UK STEREO R. Misschien ook leuk The Rolling Stones Sticky Fingers vinyl LP, Vintage. I have the 2LP edition, haven't listened to it yet, but as the unfortunate owner of the 2013(?) 1971-2005 vinyl box I can confirm that the new Sticky Fingers is not the same pressing. Sticky Fingers is the toughest, tightest, best Blues Rock album ever released. Regarded as one of The Rolling Stones’ all-time great albums, ‘Sticky Fingers’ captured the bands trademark combination of swagger and tenderness in a superb collection. Add to wishlist. Rolling Stones, The - Sticky Fingers - Vinyl LP - 1971 - UK - Original günstig online kaufen bei HHV - Versandkostenfrei bestellen ab 80€!. Rolling Stones Sticky Fingers 2009 Remas CD Rolling Stones Studio Albums Vinyl Collection Dodaj u listu želja;. Jual Vinyl Piringan Hitam the Rolling Stones Sticky Fingers dengan harga Rp 749. 18 USD on 27 Oct 2019. The band’s normal piano player bowed out of the session because he didn’t like playing minor chords. The Rolling Stones recorded Sticky Fingers coming off their awful, glorious, and dark 1969 tour which culminated in the blood, death, and chaos of Altamont. Buy Vinyl Records LP Pop-Rock International of the 50s and 60s. ROLLING STONES STICKY FINGERS ROLLING STONES ESS-63001 Japan OBI VINYL LP Jul 31, 2019 The Rolling Stones: Sticky Fingers: COC 59100: Rolling Stones Records: LP. Having defined rock'n'roll in the 60s, The Rolling Stones entered their imperial phase in 1971 with Sticky Fingers. Price Match Guarantee. The Rolling Stones played a surprise show at Los Angeles' Fonda Theatre venue last night (May 20). Because our MP3s have no DRM, you can play it on any device that supports MP3, even on your iPod!. ROLLING STONES’ ‘STICKY FINGERS’ LIVES AGAIN Deluxe Reissue Features Extensive Rare Bonus Material. 0 % Test CRC 5B498123 Copy CRC 5B498123 Copy OK No errors occurred AccurateRip summary. You could call it an album of. Working from familiarly bluesy territory, the boys add country honk depression, honing the trademark combination of huckster cynicism and sonic authenticity that marks their best work. The album comes packaged in true mini-LP CD form, replicating in precise detail the original vinyl, including a jeans with working zipper and belt buckle, which when unfastened, reveal well. Buy Sticky Fingers (LP), The Rolling Stones - Sticky Fingers Vinyl LP By The Rolling Stones Format: Vinyl at Walmart. Page 4 in result lists. Review This 1971 tour de force is one of the very best records of the '70s. My US pressing does not sound great, the virgin 1994 CD quite frankly sounds better. Five rare titles of The Rolling Stones will be released as reissues featuring SHM-CD format and cardboard sleeve artwork. In 2003, VH1 would rank Sticky Fingers as the greatest album cover of all time. Vinyl Records - Rolling Stones - Sticky Fingers. This is on pre-order and is expected to ship in 4-5 weeks. Remastered album on black heavyweight vinyl plus 12x12 insert. 00 0 bids + $10. What followed is a run of albums that couldn’t have happened at any other tim. Vinyl-Record. This is a new, unopened CD in its original packaging. Regarded as one of The Rolling Stones' all-time great albums, Sticky Fingers captured the bands trademark combination of swagger and tenderness in a superb collection. Shop the full collection of authentic posters, vintage gear, clothing, CDs, DVDs and Box Sets from all their great moments - from Start Me Up, Some Girls and Beggars Banquet to Voodoo Lounge, Tattoo You and 14 on Fire. In addition, the bonus CD contains some great live tracks from the 1971 tour and they are worth the price of the CD by themselves. Rolling Stones Records COC 59100 made in UK with zipper. Unfollow rolling stones sticky fingers cd to stop getting updates on your eBay feed. This addition to the From The Vault series captures a truly unique event in the long and eventful history of The Rolling Stones. 00 In Stock The Rolling Stones Exile On Main Street Double Vinyl LP US $49. Shop the full collection of authentic posters, vintage gear, clothing, CDs, DVDs and Box Sets from all their great moments - from Start Me Up, Some Girls and Beggars Banquet to Voodoo Lounge, Tattoo You and 14 on Fire. 0 % Test CRC 59F53DEE Copy CRC 59F53DEE Copy OK No errors occurred AccurateRip summary. Starting with Sticky Fingers from '71 and ending with Blue & Lonesome from 2016, this collection of studio albums cover the meat of what makes the Stones such an impressive group. Shop exclusive music and merch from the The Rolling Stones Official Online Store. View credits, reviews, tracks and shop for the 1973 Zipper cover Vinyl release of Sticky Fingers on Discogs.